<?xml version="1.0" standalone="no"?>
<!DOCTYPE svg PUBLIC "-//W3C//DTD SVG 1.1//EN" "http://www.w3.org/Graphics/SVG/1.1/DTD/svg11.dtd" >
<svg xmlns="http://www.w3.org/2000/svg">
<metadata>
Created by FontForge 20120731 at Wed May 27 18:02:54 2015
 By Ads
</metadata>
<defs>
<font id="iconfont" horiz-adv-x="1024" >
  <font-face 
    font-family="iconfont"
    font-weight="500"
    font-stretch="normal"
    units-per-em="1024"
    panose-1="2 0 6 3 0 0 0 0 0 0"
    ascent="812"
    descent="-212"
    x-height="792"
    bbox="0 -212 1365 812"
    underline-thickness="50"
    underline-position="-100"
    unicode-range="U+0078-E614"
  />
<missing-glyph horiz-adv-x="374" 
d="M34 0v682h272v-682h-272zM68 34h204v614h-204v-614z" />
    <glyph glyph-name=".notdef" horiz-adv-x="374" 
d="M34 0v682h272v-682h-272zM68 34h204v614h-204v-614z" />
    <glyph glyph-name=".null" horiz-adv-x="0" 
 />
    <glyph glyph-name="nonmarkingreturn" horiz-adv-x="341" 
 />
    <glyph glyph-name="x" unicode="x" horiz-adv-x="1001" 
d="M281 543q-27 -1 -53 -1h-83q-18 0 -36.5 -6t-32.5 -18.5t-23 -32t-9 -45.5v-76h912v41q0 16 -0.5 30t-0.5 18q0 13 -5 29t-17 29.5t-31.5 22.5t-49.5 9h-133v-97h-438v97zM955 310v-52q0 -23 0.5 -52t0.5 -58t-10.5 -47.5t-26 -30t-33 -16t-31.5 -4.5q-14 -1 -29.5 -0.5
t-29.5 0.5h-32l-45 128h-439l-44 -128h-29h-34q-20 0 -45 1q-25 0 -41 9.5t-25.5 23t-13.5 29.5t-4 30v167h911zM163 247q-12 0 -21 -8.5t-9 -21.5t9 -21.5t21 -8.5q13 0 22 8.5t9 21.5t-9 21.5t-22 8.5zM316 123q-8 -26 -14 -48q-5 -19 -10.5 -37t-7.5 -25t-3 -15t1 -14.5
t9.5 -10.5t21.5 -4h37h67h81h80h64h36q23 0 34 12t2 38q-5 13 -9.5 30.5t-9.5 34.5q-5 19 -11 39h-368zM336 498v228q0 11 2.5 23t10 21.5t20.5 15.5t34 6h188q31 0 51.5 -14.5t20.5 -52.5v-227h-327z" />
    <glyph glyph-name="uniE600" unicode="&#xe600;" 
d="M686 710q-24 -11 -29 -32.5t13 -39.5q9 -8 21.5 -10.5t47.5 -2.5q95 0 144 -56q31 -35 38 -58.5t7 -86.5q0 -57 2.5 -68t15.5 -19q30 -17 49.5 3.5t26.5 77.5q9 73 -29.5 149t-104.5 115q-43 25 -105.5 33.5t-96.5 -5.5zM356 585q-111 -40 -226 -162
q-138 -147 -129.5 -277t160.5 -205q104 -51 227 -58.5t235.5 28.5t188.5 109q57 54 73.5 114t-11 109t-92.5 72q-17 6 -23.5 11t-3.5 10q20 51 9 84q-16 48 -70.5 58.5t-138.5 -17.5l-45 -16l4 45q3 40 -6 63t-33 35q-19 10 -53 9t-66 -12zM543 325q75 -21 118 -63.5
t43 -96.5q0 -60 -50 -110.5t-137 -79.5q-46 -15 -118.5 -17.5t-114.5 9.5q-80 22 -123.5 65t-43.5 100q0 61 58 114q28 27 53.5 42t65.5 28q128 43 249 9zM331 260q-104 -49 -104 -140q0 -80 77 -121q31 -17 79.5 -16t82.5 19q44 23 70.5 62.5t26.5 81.5q-1 34 -27 69.5
t-62 49.5q-29 12 -71 10.5t-72 -15.5zM380 134q8 -8 8 -26q0 -26 -31 -41t-48 2q-9 10 -7.5 29t12.5 30t34 13t32 -7zM698 572q-24 -23 -11 -45.5t50 -22.5q31 0 46 -16.5t15 -53.5q0 -22 2.5 -31.5t11.5 -15.5q28 -19 47 -0.5t19 63.5q0 55 -35.5 92t-91.5 41
q-25 2 -34.5 0t-18.5 -11z" />
    <glyph glyph-name="uniE601" unicode="&#xe601;" 
d="M457 286q-148 147 -108 186q3 3 9 8q16 17 23.5 25.5t15.5 25t5 31.5t-14 38t-34 51q-15 19 -30 30.5t-27 17t-26 3t-22.5 -5t-22 -13t-19.5 -16t-19.5 -19.5t-17.5 -18q-15 -16 -18.5 -47t8 -75.5t35.5 -94.5t67 -109t98.5 -114.5t114.5 -98.5t109 -67t94.5 -35.5
t75.5 -8t47 19.5q4 3 18 16.5t19.5 19.5t16 19.5t13 22t5 22.5t-3 26t-17 27t-30.5 30q-28 23 -51 34t-38 14t-31.5 -5t-25 -15.5t-25.5 -23.5q-5 -6 -8 -9q-39 -39 -186 108v0z" />
    <glyph glyph-name="uniE602" unicode="&#xe602;" 
d="M10 -22l502 623l502 -623l-502 293z" />
    <glyph glyph-name="uniE603" unicode="&#xe603;" 
d="M512 -154q90 0 172 35t141 94t94 141t35 172t-35 172t-94 141t-141 94t-172 35t-172 -35t-141 -94t-94 -141t-35 -172t35 -172t94 -141t141 -94t172 -35zM512 642q96 0 177.5 -47.5t129 -129t47.5 -177.5t-47.5 -177.5t-129 -129t-177.5 -47.5t-177.5 47.5t-129 129
t-47.5 177.5t47.5 177.5t129 129t177.5 47.5zM543 282l-160 190q-6 7 -5 16.5t8 15.5l31 26q7 6 16.5 5t15.5 -8l192 -228q6 -7 5 -17q1 -10 -5 -17l-192 -228q-6 -7 -15.5 -8t-16.5 5l-31 26q-7 6 -8 15.5t5 16.5zM543 282z" />
    <glyph glyph-name="uniE604" unicode="&#xe604;" 
d="M116 218q-25 -59 -28.5 -108.5t16.5 -59.5q14 -7 34.5 7.5t40.5 45.5q16 -66 76 -116q-31 -12 -48.5 -29t-17.5 -38q0 -33 46 -57t112 -24q58 0 102.5 19.5t53.5 48.5h9h10q9 -29 53 -48.5t103 -19.5q65 0 111 24t46 57q0 21 -17.5 38t-48.5 29q60 50 76 116
q21 -31 41 -45.5t34 -7.5q20 10 16.5 59.5t-28.5 108.5q-20 46 -44.5 78t-45.5 40q1 6 1 12q0 36 -18 64v4q0 17 -7 31q-5 125 -81.5 207t-200.5 82t-200.5 -82t-81.5 -207q-7 -14 -7 -31v-4q-18 -28 -18 -64q0 -6 1 -12q-21 -8 -45.5 -40t-44.5 -78z" />
    <glyph glyph-name="uniE605" unicode="&#xe605;" 
d="M693 465q15 0 35 -2q-23 109 -127.5 181.5t-238.5 72.5q-98 0 -181 -40.5t-132 -111.5t-49 -156q0 -143 145 -245l-36 -109l127 64q6 -2 25 -5.5t27 -5t22.5 -4t26.5 -3t25 -0.5q16 0 34 1q-11 38 -11 76q0 119 89.5 203t218.5 84zM498 563q21 0 33.5 -12.5t12.5 -33
t-12.5 -33t-33.5 -12.5t-37.5 13t-16.5 32.5t16.5 32.5t37.5 13zM245 472q-22 0 -38.5 13t-16.5 32.5t16.5 32.5t38.5 13q20 0 32.5 -12.5t12.5 -33t-12.5 -33t-32.5 -12.5zM1024 182q0 71 -43 132t-113.5 96t-151.5 35q-129 0 -218.5 -77t-89.5 -186t89.5 -186t218.5 -77
q37 0 109 18l99 -54l-27 90q127 96 127 209zM616 228q-13 0 -24.5 11t-11.5 24.5t11.5 25t24.5 11.5q20 0 33 -11t13 -25.5t-13 -25t-33 -10.5zM815 228q-13 0 -24.5 11t-11.5 24.5t11.5 25t24.5 11.5q20 0 33 -11t13 -25.5t-13 -25t-33 -10.5z" />
    <glyph glyph-name="uniE606" unicode="&#xe606;" 
d="M957 661q-1 1 0.5 7.5t-6 14t-23.5 7.5h-528v0v-41h4q3 0 10.5 -2.5t13 -6.5t10 -13t4.5 -21q-1 -5 -3 -11.5t-13 -17.5t-26 -11q-2 -1 -4.5 -1t-9 1.5t-12 5t-11 12.5t-6.5 22q1 20 12 30.5t21 11.5l10 1v41h-303q-13 0 -21 -8t-9 -16l-1 -8v-136h891v139zM150 565
q-1 0 -5 -0.5t-10.5 1.5t-12.5 5.5t-10.5 12.5t-4.5 22q0 20 10.5 31t21.5 12h11q21 1 31.5 -10t9.5 -22v-11v-5q0 -3 -2 -10t-6 -12.5t-12.5 -9.5t-20.5 -4zM274 565q-1 0 -4.5 -0.5t-9.5 1.5t-12 5.5t-10.5 12.5t-4.5 22q1 21 11.5 31.5t20.5 11.5h10q21 0 32 -11t11 -22
v-10v-5q0 -3 -2 -10.5t-6 -13t-13.5 -9.5t-22.5 -3zM914 522v-569h-807v569h-41v-585q1 -1 0 -7t6 -13t22 -7h835q1 1 7 0t13.5 6t7.5 22v584h-43zM400 649zM251 461l75 -98l58 36l-76 98zM243 258h51v-170q0 -37 -22 -57l43 -53l119 97l-20 66l-55 -51l-2 230h-114v-62z
M399 408h71v-142h-83v-62h83v-230h65v230l75 1v61h-74v142h95q2 -15 0 -93t7 -183.5t28 -129.5q2 -2 6 -6.5t17.5 -11t27.5 -6.5q3 0 8 1t16 8.5t16 21.5q18 35 25 134l-40 15l-9 -87q0 -2 -1 -4t-2.5 -6.5t-3.5 -6.5t-4 -1l-1 -1q-1 0 -4 3.5t-6 10.5v3q-4 9 -7 57.5
t-5 141t-1 204.5h-299v-64z" />
    <glyph glyph-name="uniE607" unicode="&#xe607;" 
d="M368 300q-1 -22 14 -37l192 -192q14 -14 33.5 -14t34 14t14.5 33.5t-14 33.5l-162 162l162 162q14 14 14 33.5t-14 33.5t-34 14t-34 -14l-192 -192q-15 -15 -14 -37zM551 300zM512 747q91 0 173.5 -35.5t142.5 -95.5t95.5 -142.5t35.5 -173.5t-35.5 -173.5t-95.5 -142.5
t-142.5 -95.5t-173.5 -35.5t-173.5 35.5t-142.5 95.5t-95.5 142.5t-35.5 173.5t35.5 173.5t95.5 142.5t142.5 95.5t173.5 35.5zM512 -74q101 0 187.5 50t136.5 136.5t50 187.5t-50 187.5t-136.5 136.5t-187.5 50t-187.5 -50t-136.5 -136.5t-50 -187.5t50 -187.5
t136.5 -136.5t187.5 -50z" />
    <glyph glyph-name="uniE608" unicode="&#xe608;" 
d="M862 38q-41 0 -69.5 28.5t-28.5 67.5v111q0 28 15 51.5t41 35.5v9h2q-2 8 -2 14q0 17 12 29.5t29.5 12.5t29.5 -12.5t12 -29.5q0 -6 -2 -14h2v-9q26 -12 41 -35.5t15 -51.5v-111q0 -39 -28.5 -67.5t-68.5 -28.5zM858 424q-39 -14 -66 42q-37 81 -112.5 130t-167.5 49
q-128 0 -218 -89t-90 -215v-9q25 -12 40.5 -35.5t15.5 -51.5v-111q0 -39 -29 -67.5t-69.5 -28.5t-69 28.5t-28.5 67.5v111q0 28 15.5 51.5t40.5 35.5v23q0 101 50.5 187t137.5 135.5t190 49.5h28q124 0 223.5 -72t135.5 -184l1 -6q2 -30 -28 -41zM610 -17h28q8 0 16 -4
l74 42q8 5 20 -2.5t21 -22t9 -28.5t-8 -18l-96 -55q-12 -22 -36 -22h-28q-18 0 -30 12t-12 29v27q0 18 12 30t30 12z" />
    <glyph glyph-name="uniE609" unicode="&#xe609;" 
d="M439 25q-74 0 -142 28q-65 28 -115.5 78.5t-78.5 115.5q-29 68 -29 142.5t29 142.5q28 65 78.5 115.5t115.5 78.5q68 29 142.5 29t141.5 -29q66 -28 116.5 -78.5t78.5 -115.5q28 -68 28 -142.5t-28 -142.5q-28 -65 -78.5 -115.5t-116.5 -78.5q-67 -28 -142 -28zM439 701
q-129 0 -220.5 -91t-91.5 -220t91.5 -220.5t220.5 -91.5t220.5 91.5t91.5 220.5t-91.5 220t-220.5 91zM890.5 -145q-34.5 0 -58.5 24l-157 153l37 38l158 -153q8 -9 20.5 -9t21 9t8.5 21.5t-8 20.5l-1 1l-152 157l38 37l153 -157q24 -24 24 -58.5t-24.5 -59t-59 -24.5z
M281 231q-66 66 -66 158.5t66 158.5l38 -38q-50 -50 -50 -120.5t50 -120.5z" />
    <glyph glyph-name="uniE60A" unicode="&#xe60a;" 
d="M512 -132q-88 0 -169 34q-78 33 -138.5 93.5t-93.5 138.5q-34 81 -34 169.5t34 168.5q33 79 93.5 139t138.5 93q81 34 169 34t169 -34q78 -33 138.5 -93t93.5 -139q34 -80 34 -168.5t-34 -169.5q-33 -78 -93.5 -138.5t-138.5 -93.5q-81 -34 -169 -34zM512 687
q-77 0 -147 -29t-124.5 -83.5t-83.5 -124.5t-29 -147t29 -147t83.5 -124.5t124.5 -83.5t147 -29t147 29t124.5 83.5t83.5 124.5t29 147t-29 147t-83.5 124.5t-124.5 83.5t-147 29zM758 277h-492q-10 0 -17.5 7.5t-7.5 18t7.5 18t17.5 7.5h492q10 0 17.5 -7.5t7.5 -18
t-7.5 -18t-17.5 -7.5zM512 32q-11 0 -18.5 7.5t-7.5 18.5v491q0 10 7.5 17.5t18.5 7.5t18.5 -7.5t7.5 -17.5v-491q0 -11 -7.5 -18.5t-18.5 -7.5z" />
    <glyph glyph-name="uniE60B" unicode="&#xe60b;" horiz-adv-x="1366" 
d="M1365 -212v512h-341q0 93 45.5 171.5t124.5 124t171 45.5v171q-104 0 -198.5 -40.5t-163 -109t-109.5 -163.5t-41 -199v-512h512zM512 -212v512h-341q0 93 45.5 171.5t124 124t171.5 45.5v171q-104 0 -199 -40.5t-163.5 -109t-109 -163.5t-40.5 -199v-512h512z" />
    <glyph glyph-name="uniE60C" unicode="&#xe60c;" 
d="M64 682h121v-121h-121v121zM310 682h650v-121h-650v121zM64 350h121v-121h-121v121zM310 350h650v-121h-650v121zM64 39h121v-121h-121v121zM310 39h650v-121h-650v121zM310 39z" />
    <glyph glyph-name="uniE60D" unicode="&#xe60d;" 
d="M678 429q0 69 -48.5 117.5t-117.5 48.5t-117.5 -48.5t-48.5 -117.5t48.5 -117.5t117.5 -48.5t117.5 48.5t48.5 117.5zM383 428.5q0 53.5 37.5 91.5t91 38t91.5 -38t38 -91.5t-38 -91t-91.5 -37.5t-91 37.5t-37.5 91zM807 429q0 122 -86.5 208.5t-208.5 86.5t-208.5 -86.5
t-86.5 -208.5q0 -46 30.5 -115.5t73.5 -137.5t86.5 -128t74 -98t30.5 -37q12 14 32 39t70.5 94.5t89.5 131.5t71 133.5t32 117.5zM512 687q107 0 182.5 -75.5t75.5 -182.5q0 -40 -26.5 -102t-64.5 -122.5t-76 -115t-65 -87.5l-26 -34q-11 13 -28.5 35.5t-62 85t-78.5 117.5
t-61.5 119t-27.5 104q0 107 75.5 182.5t182.5 75.5zM642 31q-11 -16 -23 -32q60 -7 96 -20t36 -29q0 -23 -70 -39.5t-169 -16.5t-169.5 16.5t-70.5 39.5q0 16 36.5 29t96.5 20l-24 32q-66 -12 -106 -34t-40 -47q0 -39 81 -66t195.5 -27t195.5 27t81 66q0 25 -39.5 47
t-106.5 34z" />
    <glyph glyph-name="uniE60E" unicode="&#xe60e;" 
d="M505 537q93 -7 134 -67q23 -35 16 -84q-1 -6 -1 -7q-2 -7 5 -9q14 -3 18 -8t4 -19q0 -19 -10 -48q-7 -20 -26 -21q-7 -1 -9 -8q-19 -76 -97 -115q-30 -14 -65 6q-57 32 -80 89q-4 10 -5 19q-2 7 -9 9q-17 3 -24 20q-12 27 -11 53q0 19 19 23q6 1 5 8q-2 44 3 68
q7 31 24.5 47t48.5 20q9 1 10 1q14 0 18 11q3 10 20 12h12zM577 -30q11 28 12 30q26 74 34 97q4 10 14 6q11 -4 41.5 -14.5t46.5 -17.5q45 -17 59 -49q8 -18 8 -37v-27q0 -15 -10 -25.5t-26 -10.5h-482q-28 0 -39 22q-2 5 -2 7q0 47 3 60q13 41 62 60q17 6 48 17t44 15
q8 4 12 -6q8 -23 43 -119q0 -1 2 -8q3 0 6 5q2 3 14.5 25t19.5 33q4 7 -3 12q-19 15 -21 40q-1 17 15 25q34 17 67 2q20 -10 16 -34q-3 -19 -21 -34q-6 -5 -2 -10q7 -12 21 -35.5t16 -27.5zM717 678q73 -6 114 -54q26 -31 23 -75q-1 -16 -3 -22q-1 -4 5 -5q12 -2 16 -7
t4 -18q0 -20 -10 -50q-5 -14 -22 -15q-7 0 -9 -8q-18 -72 -91 -106l-1 -1q-14 -5 -16.5 -3t-0.5 16q5 41 -18 66q-5 5 -6 12q-1 100 -97 150q-12 6 -13.5 9t0.5 16q6 43 34 60q19 11 48 13q8 0 10 7q3 11 18 14q1 0 15 1zM297 677q85 -8 122 -63q13 -20 16 -48q1 -8 -8 -10
q-39 -8 -63 -31q-33 -31 -40 -87q0 -6 -1 -31q-1 -6 -4 -9q-26 -27 -19 -68q2 -14 -1 -16t-16 3q-72 31 -93 104q-3 11 -12 13q-11 1 -17 13q-13 26 -12 56q1 15 16 18q7 2 7 9q-2 25 -1 43q3 40 23 60t60 23q9 0 11 8q3 10 19 13h13zM190 118h-94q-12 0 -20.5 7t-9.5 19
q-3 24 0 43q7 48 58 69q8 3 71 27q8 3 10 2t5 -9q4 -15 16.5 -51t18.5 -56q3 -7 4 -7t2.5 1t2.5 3t1 3q3 4 12.5 19t15.5 23q4 6 -2 11q-19 15 -20 36q-1 14 11 21q14 8 33 7q5 0 7 -5q9 -21 25 -36q5 -3 1 -9q-6 -10 -13 -15q-6 -4 -2 -10q8 -11 22 -32t17 -25q4 -7 3.5 -9
t-7.5 -5q-7 -2 -19 -6t-22 -7.5t-19 -6.5q-4 -2 -13 -2h-95zM835 118q-80 0 -92 -1q-9 0 -23 5q-1 1 -52 18q-7 3 -7.5 4.5t3.5 8.5q32 49 37 58q5 7 -1 11q-2 1 -6 6q-7 7 -7 9.5t7 9.5q14 14 19 31q3 9 13 8q30 -1 37 -17q8 -20 -13 -42q-8 -9 -8.5 -11.5t5.5 -12.5
q9 -13 24 -37q4 -4 5.5 -4t2.5 6q30 87 36 108q4 11 15 7q5 -2 34 -12.5t44 -18.5q52 -25 52 -80v-23q-1 -14 -9.5 -22.5t-22.5 -8.5h-93v0zM835 118z" />
    <glyph glyph-name="uniE60F" unicode="&#xe60f;" 
d="M416 385q22 -30 56 -47.5t72 -17.5q67 0 114 47.5t47 114t-47 113.5t-114 47q-38 0 -72 -17.5t-56 -46.5q-23 29 -56.5 46.5t-72.5 17.5q-67 0 -114 -47t-47 -113.5t47 -114t114 -47.5q39 0 72.5 17.5t56.5 47.5zM885 245l-101 -87q-14 -11 -15 -26v141q0 20 -14 33.5
t-33 13.5h-614q-19 0 -32.5 -13.5t-13.5 -33.5v-291q0 -20 13.5 -33.5t32.5 -13.5h614q19 0 33 13.5t14 33.5v143q1 -15 15 -26l101 -87q16 -12 38.5 -12t37.5 12v233q-15 12 -37.5 12t-38.5 -12z" />
    <glyph glyph-name="uniE610" unicode="&#xe610;" 
d="M761 407l32 -17v-66l-33 -18v-174l33 -17v-67l-32 -17v27q0 12 -8.5 20t-20.5 8t-20.5 -8t-8.5 -20v-27l-31 17v67l32 17v174l-32 18v66l31 17v-27q0 -11 8.5 -19t20.5 -8t20.5 8t8.5 19v27zM483.5 569q46.5 0 79 -38t32.5 -91.5t-32.5 -91.5t-79 -38t-79 38t-32.5 91.5
t32.5 91.5t79 38zM520 193h105v-30h-105v30zM372 313q-99 -37 -115 -153l-12 -112h239h163v81l33 17v101q-30 45 -84 66q-5 1 -11 3l-101 -97l-102 97q-5 -1 -10 -3z" />
    <glyph glyph-name="uniE611" unicode="&#xe611;" 
d="M764 616q46 3 90.5 -8.5t78.5 -28.5t55.5 -36t21.5 -32t-16.5 -16t-41 -5t-54 -8t-55.5 -27q-18 -13 -33.5 -29t-31.5 -30.5t-33 -27t-36 -19.5q-10 -3 -24.5 -6.5t-30 -1.5t-32.5 10.5t-32 29.5q-10 -13 -17 -31t-12.5 -39t-9.5 -43.5t-6 -41.5q-2 -17 -3.5 -41.5
t-1 -48.5t3 -44t6.5 -29q6 -10 6 -16t-5.5 -11t-21.5 -5q-17 0 -23 5t-6 11q-1 6 4 15q6 11 7.5 25.5t1 31.5t-1.5 34.5t-1 34.5q-18 34 -34 58.5t-36 45.5q-12 -26 -28 -39t-32.5 -18t-31 -4.5t-25.5 2.5q-20 4 -37.5 13t-35 20.5t-35.5 24.5t-36 23q-29 17 -59 18
t-54.5 -2t-40 -2.5t-15.5 15t18 36.5t48 43t70.5 38t84.5 21q69 7 114.5 -6.5t71 -39t32 -58t-2.5 -65.5q35 -32 69 -81q6 54 28 108q8 19 16 32t19 28q-18 32 -18.5 68t21 68t66 54t117.5 27zM439 315q-61 53 -129 68t-140 -3q-2 0 -1 -0.5t3 -0.5q32 3 65 2.5t66 -10
t66 -27.5t64 -48zM840 523q2 0 3 0.5t-2 0.5q-80 8 -144.5 -24.5t-113.5 -94.5l11 -19q29 41 60.5 67t63.5 41.5t62.5 21.5t59.5 7zM270 -35q-9 7 5 17.5t41.5 21.5t62 22.5t65.5 20.5q14 4 22.5 -1t15.5 -12.5t17.5 -14.5t30 -7t30 7t18 14t15 12t22.5 2q31 -9 66 -21
t63 -23.5t42 -22t3 -15.5q-26 -15 -70 -24t-96 -13.5t-107 -4.5t-104.5 5t-87.5 14.5t-54 22.5z" />
    <glyph glyph-name="uniE612" unicode="&#xe612;" 
d="M422 608q80 -11 100 -18q-15 -7 -66 -17q-27 -6 -40 -9t-30 -9t-24 -14.5t-7 -19.5q0 -27 26 -39.5t61 -12.5q8 0 13 5t5 12t-5 12.5t-13 5.5q-16 0 -32.5 4t-18.5 11q10 7 72 20q28 5 41 8.5t30 9.5t23.5 14t6.5 20q0 21 -29 31t-108 21q-83 12 -102 19q23 16 102 33.5
t120 17.5q7 0 12 5t5 12t-5 12t-12 5q-19 0 -76 -8t-121 -29.5t-64 -49.5q0 -21 29 -30.5t107 -21.5zM721 430h-627v-83v-348q0 -59 41 -102.5t98 -43.5h349q57 0 98 43.5t41 102.5q87 0 148 61t61 148t-62 154.5t-147 67.5zM721 103v209q43 0 74 -30.5t31 -74t-31 -74
t-74 -30.5z" />
    <glyph glyph-name="uniE613" unicode="&#xe613;" 
d="M261 45q-10 0 -17 7t-7 17v565q0 10 7 17t17 7h490q10 0 17 -7t7 -17v-195v-39l100 -100v105v270q0 40 -28 67.5t-67 27.5h-548q-39 0 -67 -27.5t-28 -67.5v-750q0 -40 28 -67.5t67 -27.5h440q28 0 51 15t34 39l-149 161h-347zM522.5 -115q-23.5 0 -40 16.5t-16.5 40
t16.5 40t40 16.5t40 -16.5t16.5 -40t-16.5 -40t-40 -16.5zM974 50l-25 24l-135 135l-100 99l-19 19q3 7 4 14q5 20 5 41q0 18 -4 35q-12 63 -62 104t-115 41q-13 0 -26 -1v0l-4 -50l82 -85l-102 -102l-87 87l-42 -8v0q-2 -11 -2 -21q0 -60 36 -108t92 -65q26 -8 53 -8
q26 0 50 7h1l70 -70l161 -161l22 -22l28 -28q21 -13 46 -13q36 0 61.5 25.5t25.5 61.5q0 27 -14 49z" />
    <glyph glyph-name="uniE614" unicode="&#xe614;" 
d="M1004 412l-59 -57l-159 159l58 57q13 13 31 14.5t30 -9.5l105 -103q11 -11 9 -29.5t-15 -31.5v0zM186 200zM487 222l271 265v0l161 -157l-383 -378q-6 -6 -14 -8q-1 0 -2 -1l-201 -62q-10 -3 -15 3q-6 6 -2 15l63 196q0 2 1 3q3 12 9 15l74 67zM487 -35l-99 97l-27 -82
l42 -42l84 27v0zM753 425q-4 4 -10.5 4t-9.5 -4l-301 -294q-5 -4 -5 -10.5t5 -10.5q4 -3 10.5 -3t9.5 3l300 295q10 8 1 20v0zM85 -149q-21 0 -21 14v801q0 5 1 8.5t4.5 5t4.5 1.5h8h8h70v-27q0 -7 7 -13t15 -6t15.5 6t7.5 13v27h104v-27q0 -7 7 -13t16 -6q8 0 15.5 6
t7.5 13v27h95v-27q0 -7 7 -13t16 -6q8 0 15.5 6t7.5 13v27h95v-27q0 -7 7 -13t15 -6t15.5 6t7.5 13v27h80q17 0 17 -15v-132l58 57v75q0 31 -21.5 51.5t-53.5 20.5h-81v49q0 8 -7 13.5t-16 5.5q-8 0 -15.5 -5.5t-7.5 -13.5v-49h-95v49q0 8 -7 13.5t-16 5.5q-8 0 -15 -5.5
t-7 -13.5v-49h-96v49q0 8 -7 13.5t-15 5.5t-15.5 -5.5t-7.5 -13.5v-49h-104v49q0 8 -7 13.5t-16 5.5q-8 0 -15.5 -5.5t-7.5 -13.5v-49h-68q-42 0 -63.5 -20t-21.5 -52v-800q0 -31 24 -51.5t57 -20.5h629q32 0 53.5 20t21.5 52v276l-59 -57v-220q0 -14 -16 -14h-630zM583 375
zM300 345h-69q-20 2 -22 15q0 18 22 18h47l-80 124q0 2 -2 4q-4 8 -6 16q2 15 17 17q16 0 24 -13l91 -136l90 136q8 13 24 13q15 -2 17 -17q0 -4 -6 -16q-2 -2 -2 -4l-80 -124h47q22 0 22 -18q-2 -13 -22 -15h-69v-36h69q22 0 22 -17q-2 -14 -22 -16h-69v-79
q0 -20 -21.5 -20t-21.5 20v79h-69q-20 2 -22 16q0 17 22 17h69v36z" />
  </font>
</defs>
</svg>
